[NSBC] Hakui no Senshi E05 [WEBDL] [1080p]

Category:
Date:
2019-05-15 23:49 UTC
Submitter:
Seeders:
10
Information:
TlNCQy50bw==
Leechers:
4
File size:
774.3 MiB
Completed:
654
Info hash:
ca98233eeec7941178fd49526b99ab2be332b0ba
![POSTER](http://img.topddl.net/images/76936e74edfd1dab488dc1ca56c95883.png "") ![Thumbnails](http://img.topddl.net/images/ea8fd9433e0a9db26a61fc71218f2557.jpg "") ``` General Unique ID : 232704265863961158583728319996779665875 (0xAF11361D177DFFBD79D13546F75999D3) Complete name : [NSBC] Hakui no Senshi E05 [WEBDL] [1080p].mkv Format : Matroska Format version : Version 4 File size : 774 MiB Duration : 51 min 24 s Overall bit rate : 2 106 kb/s Movie name : [NSBC] Hakui no Senshi E05 [WEBDL] [1080p] Encoded by : NoNe | NSBC Encoded date : UTC 2019-05-15 23:40:05 Writing application : mkvmerge v33.1.0 ('Primrose') 64-bit Writing library : libebml v1.3.7 + libmatroska v1.5.0 / Lavf57.83.100 Copyright : NSBC Comment : NoNe | NSBC DATE_RECORDED : 2019 Video ID : 1 Format : AVC Format/Info : Advanced Video Codec Format profile : [email protected] Format settings : CABAC / 4 Ref Frames Format settings, CABAC : Yes Format settings, RefFrames : 4 frames Codec ID : V_MPEG4/ISO/AVC Duration : 51 min 24 s Bit rate : 1 912 kb/s Width : 1 920 pixels Height : 1 080 pixels Display aspect ratio : 16:9 Frame rate mode : Constant Frame rate : 29.970 (30000/1001) FPS Color space : YUV Chroma subsampling : 4:2:0 Bit depth : 8 bits Scan type : Progressive Bits/(Pixel*Frame) : 0.031 Stream size : 703 MiB (91%) Title : [NSBC] Writing library : Zencoder Video Encoding System Default : Yes Forced : No VARIANT_BITRATE : 0 Audio ID : 2 Format : AAC LC Format/Info : Advanced Audio Codec Low Complexity Codec ID : A_AAC-2 Duration : 51 min 24 s Bit rate : 192 kb/s Channel(s) : 2 channels Channel layout : L R Sampling rate : 48.0 kHz Frame rate : 46.875 FPS (1024 SPF) Compression mode : Lossy Stream size : 70.6 MiB (9%) Title : [NSBC] Language : Japanese Default : Yes Forced : No VARIANT_BITRATE : 0 ```

File list

  • [NSBC] Hakui no Senshi E05 [WEBDL] [1080p].mkv (774.3 MiB)