[NSBC] Iyasaretai Otoko E06 [WEBDL] [720p]

Category:
Date:
2019-05-15 23:49 UTC
Submitter:
Seeders:
9
Information:
TlNCQy50bw==
Leechers:
5
File size:
572.9 MiB
Completed:
411
Info hash:
7e1c04d77986efdfc9aac8f2ca69aba7bba0282b
![poster](http://img.topddl.net/images/2f3a1d44528bcc95b3ea1e5c3ba3b605.jpg "") ![Thumbnail](http://img.topddl.net/images/1621cc1ba05ad7a8c2cd15459438b438.jpg "") ``` General Unique ID : 310795167985488601129179136146188066530 (0xE9D0F8D8E2B598E986F50A0086FCDEE2) Complete name : [NSBC] Iyasaretai Otoko E06 [WEBDL] [720p].mkv Format : Matroska Format version : Version 4 File size : 573 MiB Duration : 25 min 34 s Overall bit rate : 3 131 kb/s Movie name : [NSBC] Iyasaretai Otoko E06 [WEBDL] [720p] Encoded by : NoNe | NSBC Encoded date : UTC 2019-05-15 23:40:18 Writing application : mkvmerge v33.1.0 ('Primrose') 64-bit Writing library : libebml v1.3.7 + libmatroska v1.5.0 Copyright : NSBC Comment : NoNe | NSBC DATE_RECORDED : 2019 Video ID : 1 Format : AVC Format/Info : Advanced Video Codec Format profile : [email protected] Format settings : CABAC / 4 Ref Frames Format settings, CABAC : Yes Format settings, RefFrames : 4 frames Codec ID : V_MPEG4/ISO/AVC Duration : 25 min 34 s Bit rate : 3 001 kb/s Width : 1 280 pixels Height : 720 pixels Display aspect ratio : 16:9 Frame rate mode : Constant Frame rate : 30.000 FPS Color space : YUV Chroma subsampling : 4:2:0 Bit depth : 8 bits Scan type : Progressive Bits/(Pixel*Frame) : 0.109 Stream size : 549 MiB (96%) Title : [NSBC] Writing library : Zencoder Video Encoding System Default : Yes Forced : No VARIANT_BITRATE : 0 Audio ID : 2 Format : AAC LC Format/Info : Advanced Audio Codec Low Complexity Codec ID : A_AAC-2 Duration : 25 min 34 s Bit rate : 128 kb/s Channel(s) : 2 channels Channel layout : L R Sampling rate : 48.0 kHz Frame rate : 46.875 FPS (1024 SPF) Compression mode : Lossy Delay relative to video : -109 ms Stream size : 23.4 MiB (4%) Title : [NSBC] Language : Japanese Default : Yes Forced : No VARIANT_BITRATE : 0 ```

File list

  • [NSBC] Iyasaretai Otoko E06 [WEBDL] [720p].mkv (572.9 MiB)