[Arukoru] Egao no Daika (The Price of Smiles) - Episode 02 - The Truth Of The War [1080p x265 10bit WEB Multi-Sub AAC]

Category:
Date:
2019-01-12 02:08 UTC
Submitter:
Seeders:
4
Information:
No information.
Leechers:
0
File size:
485.0 MiB
Completed:
31
Info hash:
6bfdccef267883dfa666e2f58cc412a3ef9a1ba8
[![Arukoru-Egao-no-Daika-The-Price-of-Smiles-Episode-02-The.png](https://i.postimg.cc/HsK6mgd1/Arukoru-Egao-no-Daika-The-Price-of-Smiles-Episode-02-The.png)](https://postimg.cc/WhGGmxd5) [![Arukoru-Egao-no-Daika-The-Price-of-Smiles-Episode-02-The.png](https://i.postimg.cc/LXHTD4BL/Arukoru-Egao-no-Daika-The-Price-of-Smiles-Episode-02-The.png)](https://postimg.cc/VSVnL8hk) [![Arukoru-Egao-no-Daika-The-Price-of-Smiles-Episode-02-The.png](https://i.postimg.cc/zB0kcm0M/Arukoru-Egao-no-Daika-The-Price-of-Smiles-Episode-02-The.png)](https://postimg.cc/bDSbZ5XH) Format : Matroska Format version : Version 4 File size : 485 MiB Duration : 23 min 41 s Overall bit rate : 2 862 kb/s Encoded date : UTC 2019-01-12 02:03:25 Writing application : mkvmerge v29.0.0 ('Like It Or Not') 64-bit Writing library : libebml v1.3.6 + libmatroska v1.4.9 / Lavf58.20.100 Video ID : 1 Format : HEVC Format/Info : High Efficiency Video Coding Format profile : Main [email protected]@Main Codec ID : V_MPEGH/ISO/HEVC Duration : 23 min 40 s Bit rate : 2 733 kb/s Width : 1 920 pixels Height : 1 080 pixels Display aspect ratio : 16:9 Frame rate mode : Constant Frame rate : 23.976 (24000/1001) FPS Color space : YUV Chroma subsampling : 4:2:0 Bit depth : 10 bits Bits/(Pixel*Frame) : 0.055 Stream size : 463 MiB (95%) Writing library : x265 2.9:[Windows][GCC 7.1.0][64 bit] 10bit Default : Yes Forced : No Color range : Limited Color primaries : BT.709 Transfer characteristics : BT.709 Matrix coefficients : BT.709 Audio ID : 2 Format : AAC LC Format/Info : Advanced Audio Codec Low Complexity Codec ID : A_AAC-2 Duration : 23 min 40 s Bit rate : 128 kb/s Channel(s) : 2 channels Channel layout : L R Sampling rate : 44.1 kHz Frame rate : 43.066 FPS (1024 SPF) Compression mode : Lossy Stream size : 21.7 MiB (4%) Language : Japanese Default : Yes Forced : No Text #1 ID : 3 Format : ASS Codec ID : S_TEXT/ASS Codec ID/Info : Advanced Sub Station Alpha Duration : 23 min 39 s Bit rate : 116 b/s Count of elements : 318 Compression mode : Lossless Stream size : 20.2 KiB (0%) Language : English Default : Yes Forced : Yes Text #2 ID : 4 Format : ASS Codec ID : S_TEXT/ASS Codec ID/Info : Advanced Sub Station Alpha Duration : 23 min 39 s Bit rate : 145 b/s Count of elements : 317 Compression mode : Lossless Stream size : 25.3 KiB (0%) Language : Arabic Default : No Forced : No Text #3 ID : 5 Format : ASS Codec ID : S_TEXT/ASS Codec ID/Info : Advanced Sub Station Alpha Duration : 23 min 39 s Bit rate : 136 b/s Count of elements : 311 Compression mode : Lossless Stream size : 23.6 KiB (0%) Language : German Default : No Forced : No Text #4 ID : 6 Format : ASS Codec ID : S_TEXT/ASS Codec ID/Info : Advanced Sub Station Alpha Duration : 23 min 39 s Bit rate : 116 b/s Count of elements : 310 Compression mode : Lossless Stream size : 20.3 KiB (0%) Language : Spanish Default : No Forced : No Text #5 ID : 7 Format : ASS Codec ID : S_TEXT/ASS Codec ID/Info : Advanced Sub Station Alpha Duration : 23 min 39 s Bit rate : 116 b/s Count of elements : 310 Compression mode : Lossless Stream size : 20.3 KiB (0%) Title : Mexico Language : Spanish Default : No Forced : No Text #6 ID : 8 Format : ASS Codec ID : S_TEXT/ASS Codec ID/Info : Advanced Sub Station Alpha Duration : 23 min 40 s Bit rate : 114 b/s Count of elements : 284 Compression mode : Lossless Stream size : 19.9 KiB (0%) Language : French Default : No Forced : No Text #7 ID : 9 Format : ASS Codec ID : S_TEXT/ASS Codec ID/Info : Advanced Sub Station Alpha Duration : 23 min 39 s Bit rate : 122 b/s Count of elements : 319 Compression mode : Lossless Stream size : 21.2 KiB (0%) Language : Italian Default : No Forced : No Text #8 ID : 10 Format : ASS Codec ID : S_TEXT/ASS Codec ID/Info : Advanced Sub Station Alpha Duration : 23 min 39 s Bit rate : 126 b/s Count of elements : 314 Compression mode : Lossless Stream size : 21.9 KiB (0%) Language : Portuguese Default : No Forced : No Text #9 ID : 11 Format : ASS Codec ID : S_TEXT/ASS Codec ID/Info : Advanced Sub Station Alpha Duration : 23 min 39 s Bit rate : 157 b/s Count of elements : 319 Compression mode : Lossless Stream size : 27.3 KiB (0%) Language : Russian Default : No Forced : No Source: Crunchyroll WEB-DL

File list

  • [Arukoru] Egao no Daika (The Price of Smiles) - Episode 02 - The Truth Of The War [1080p x265 10bit WEB Multi-Sub AAC].mkv (485.0 MiB)

Comments - 0