[Arukoru] Girly Air Force - Episode 01 - Crimson Wings [1080p x265 10bit WEB Multi-Sub AAC]

Category:
Date:
2019-01-12 01:51 UTC
Submitter:
Seeders:
8
Information:
No information.
Leechers:
0
File size:
387.6 MiB
Completed:
45
Info hash:
246dc26206e7d74dd2f3c2bf6dcb3732937ecb29
[![Arukoru-Girly-Air-Force-Episode-01-Crimson-Wings-1080p-x2.png](https://i.postimg.cc/wTPmMx1F/Arukoru-Girly-Air-Force-Episode-01-Crimson-Wings-1080p-x2.png)](https://postimg.cc/SJ6sth7z) [![Arukoru-Girly-Air-Force-Episode-01-Crimson-Wings-1080p-x2.png](https://i.postimg.cc/DZ2WH8Nf/Arukoru-Girly-Air-Force-Episode-01-Crimson-Wings-1080p-x2.png)](https://postimg.cc/CZQLfLY9) [![Arukoru-Girly-Air-Force-Episode-01-Crimson-Wings-1080p-x2.png](https://i.postimg.cc/d33hQgvz/Arukoru-Girly-Air-Force-Episode-01-Crimson-Wings-1080p-x2.png)](https://postimg.cc/30M8nSkB) Format : Matroska Format version : Version 4 File size : 388 MiB Duration : 23 min 40 s Overall bit rate : 2 289 kb/s Encoded date : UTC 2019-01-12 01:45:46 Writing application : mkvmerge v29.0.0 ('Like It Or Not') 64-bit Writing library : libebml v1.3.6 + libmatroska v1.4.9 / Lavf58.20.100 Video ID : 1 Format : HEVC Format/Info : High Efficiency Video Coding Format profile : Main [email protected]@Main Codec ID : V_MPEGH/ISO/HEVC Duration : 23 min 40 s Bit rate : 2 157 kb/s Width : 1 920 pixels Height : 1 080 pixels Display aspect ratio : 16:9 Frame rate mode : Constant Frame rate : 23.976 (24000/1001) FPS Color space : YUV Chroma subsampling : 4:2:0 Bit depth : 10 bits Bits/(Pixel*Frame) : 0.043 Stream size : 365 MiB (94%) Writing library : x265 2.9:[Windows][GCC 7.1.0][64 bit] 10bit Default : Yes Forced : No Color range : Limited Color primaries : BT.709 Transfer characteristics : BT.709 Matrix coefficients : BT.709 Audio ID : 2 Format : AAC LC Format/Info : Advanced Audio Codec Low Complexity Codec ID : A_AAC-2 Duration : 23 min 40 s Bit rate : 128 kb/s Channel(s) : 2 channels Channel layout : L R Sampling rate : 44.1 kHz Frame rate : 43.066 FPS (1024 SPF) Compression mode : Lossy Stream size : 21.7 MiB (6%) Language : Japanese Default : Yes Forced : No Text #1 ID : 3 Format : ASS Codec ID : S_TEXT/ASS Codec ID/Info : Advanced Sub Station Alpha Duration : 23 min 40 s Bit rate : 116 b/s Count of elements : 330 Compression mode : Lossless Stream size : 20.1 KiB (0%) Language : English Default : Yes Forced : Yes Text #2 ID : 4 Format : ASS Codec ID : S_TEXT/ASS Codec ID/Info : Advanced Sub Station Alpha Duration : 23 min 40 s Bit rate : 149 b/s Count of elements : 329 Compression mode : Lossless Stream size : 26.0 KiB (0%) Language : Arabic Default : No Forced : No Text #3 ID : 5 Format : ASS Codec ID : S_TEXT/ASS Codec ID/Info : Advanced Sub Station Alpha Duration : 23 min 40 s Bit rate : 114 b/s Count of elements : 299 Compression mode : Lossless Stream size : 19.9 KiB (0%) Language : German Default : No Forced : No Text #4 ID : 6 Format : ASS Codec ID : S_TEXT/ASS Codec ID/Info : Advanced Sub Station Alpha Duration : 23 min 40 s Bit rate : 98 b/s Count of elements : 291 Compression mode : Lossless Stream size : 17.0 KiB (0%) Language : Spanish Default : No Forced : No Text #5 ID : 7 Format : ASS Codec ID : S_TEXT/ASS Codec ID/Info : Advanced Sub Station Alpha Duration : 23 min 40 s Bit rate : 97 b/s Count of elements : 291 Compression mode : Lossless Stream size : 16.9 KiB (0%) Title : Mexico Language : Spanish Default : No Forced : No Text #6 ID : 8 Format : ASS Codec ID : S_TEXT/ASS Codec ID/Info : Advanced Sub Station Alpha Duration : 23 min 37 s Bit rate : 109 b/s Count of elements : 273 Compression mode : Lossless Stream size : 18.9 KiB (0%) Language : French Default : No Forced : No Text #7 ID : 9 Format : ASS Codec ID : S_TEXT/ASS Codec ID/Info : Advanced Sub Station Alpha Duration : 23 min 40 s Bit rate : 119 b/s Count of elements : 328 Compression mode : Lossless Stream size : 20.7 KiB (0%) Language : Italian Default : No Forced : No Text #8 ID : 10 Format : ASS Codec ID : S_TEXT/ASS Codec ID/Info : Advanced Sub Station Alpha Duration : 23 min 40 s Bit rate : 108 b/s Count of elements : 313 Compression mode : Lossless Stream size : 18.8 KiB (0%) Language : Portuguese Default : No Forced : No Text #9 ID : 11 Format : ASS Codec ID : S_TEXT/ASS Codec ID/Info : Advanced Sub Station Alpha Duration : 23 min 40 s Bit rate : 162 b/s Count of elements : 295 Compression mode : Lossless Stream size : 28.2 KiB (0%) Language : Russian Default : No Forced : No Source: Crunchyroll WEB-DL

File list

  • [Arukoru] Girly Air Force - Episode 01 - Crimson Wings [1080p x265 10bit WEB Multi-Sub AAC].mkv (387.6 MiB)

Comments - 0